#TITLE:GET OFF;
#SUBTITLE:;
#ARTIST:Foxy;
#TITLETRANSLIT:;
#SUBTITLETRANSLIT:;
#ARTISTTRANSLIT:;
#CREDIT:;
#BANNER:Get Off-banner.png;
#BACKGROUND:Get Off-bg.png;
#LYRICSPATH:;
#CDTITLE:;
#MUSIC:Get Off.mp3;
#MUSICLENGTH:76.486;
#OFFSET:-0.260;
#SAMPLESTART:60.165;
#SAMPLELENGTH:12.000;
#SELECTABLE:YES;
#BPMS:0.000=130.440;
#STOPS:;
#BGCHANGES:;
#FIRSTBEAT:4.000;

#LASTBEAT:163.500;

#SONGFILENAME:Songs/ERICth MIX 2nd Style/Get Off/getoff.sm;

#HASMUSIC:1;

#HASBANNER:1;


//---------------dance-single - MANIAC----------------
#NOTES:
     dance-single:
     MANIAC:
     hard:
     6:
     0.374,0.401,0.039,0.052,0.046,193.000,3.000,4.000,0.000,0.000:



0000
0000
0000
0000
,
0000
0000
0000
0000
,
0000
0000
0000
0000
,
0000
0000
0000
0000
,
1000
0000
1000
0000
0010
0000
0010
1000
,
0000
1000
0002
0000
0000
0000
0103
0010
,
0000
0010
2000
0000
0000
0000
3010
0100
,
0000
0100
0010
0000
0010
0000
0001
0000
,
1000
0000
0100
0000
0001
0000
0010
1000
,
1000
0000
0000
1000
0000
0000
1000
0000
0010
0000
0000
0010
0000
0000
0010
0000
,
1000
0100
0010
0001
,
0001
0000
0010
0000
0001
1000
0001
0010
,
0000
0000
1000
0000
0100
0100
0001
0000
,
1000
0001
0100
0001
1000
0000
0000
0010
,
0100
0000
0010
0100
0000
0010
0100
0000
,
1000
0000
1000
0000
0001
0010
0100
1000
,
0000
1001
1001
0000
,
0001
0000
0000
0010
0000
0000
0001
0000
0001
0000
0000
0100
0000
0000
0001
0000
,
1000
0100
0001
0100
1000
0000
1000
0000
,
1000
0000
0001
0000
1000
0001
0100
0010
,
0000
0000
0000
0000
,
0010
1000
0001
0010
1000
0010
0001
0000
,
0100
0001
1000
0100
0001
0100
1000
0100
,
1000
0000
1000
0100
0000
0100
1000
0000
,
1100
0000
1000
0001
1000
0001
1000
0001
,
1000
0100
1000
0100
1000
0100
0000
0000
,
0010
0001
0010
0001
0010
0001
0000
0000
,
0100
1000
0001
0010
0001
1000
0100
0020
,
0000
0000
0000
0030
,
1000
0010
1000
0010
1000
0010
1000
0000
,
0001
0100
0001
0100
0001
0100
0000
0000
,
0010
0001
1000
0100
0001
0100
0010
0200
,
0000
0000
0000
0310
,
1000
0100
0100
0001
,
1000
0100
0100
0001
,
1000
0001
0100
0010
,
0010
0000
0010
0000
1000
1000
0001
0000
,
1000
0100
1000
0100
1000
0100
1000
0000
,
1000
0100
1000
0100
1000
0001
1000
0000
,
0010
0001
0010
0100
0010
0001
0010
0000
,
0100
0001
0000
0000
0000
0000
0001
0100
0000
0000
0000
0000
0001
0100
0001
0000;

//---------------dance-single - ANOTHER----------------
#NOTES:
     dance-single:
     ANOTHER:
     medium:
     3:
     0.224,0.267,0.144,0.013,0.000,108.000,11.000,1.000,0.000,0.000:



0000
0000
0000
0000
,
0001
0000
0000
0000
,
0001
0000
0000
0000
,
0100
0000
0000
0000
,
0100
0000
0000
0000
,
0010
0000
0010
0000
,
0001
0000
1000
0000
,
0100
0000
0000
1000
0100
0000
0000
0000
,
0010
0000
0000
0001
0100
0000
0000
0000
,
0001
0000
0001
0001
,
0001
0000
1000
0010
,
0100
0000
0000
0000
0100
1000
0010
1000
,
0000
0000
0010
0010
,
0001
0000
1000
0100
,
0010
0000
0010
0000
,
1001
0000
1001
0000
,
0001
1000
0100
1000
0010
0100
0001
0000
,
0001
0000
0100
0000
,
0010
0000
0100
0000
,
1000
0000
0010
0000
,
1010
0000
0101
0000
,
1100
0000
0011
0000
,
0110
0000
1001
0000
,
0010
0000
0000
0000
0000
1000
0001
1000
,
0000
0000
0100
0100
,
0010
1000
0100
0000
,
0010
0001
0100
0000
,
1000
0000
0100
0000
0001
0100
1000
0100
,
0000
0000
0000
0000
,
0020
0000
0000
0100
,
1000
0100
1000
0100
,
0100
0030
0000
0000
0100
0000
0000
0000
,
0010
0000
0000
0000
,
1001
0010
0100
0000
,
1100
0001
0010
0000
,
0011
0010
0001
0000
,
0100
0000
0010
0000
1000
0100
0001
0000
,
0100
0010
0100
0000
,
0010
1000
0001
0000
,
0010
0001
1000
0000
,
0100
0000
0000
0000
0100
0100
0100
0100;

//---------------dance-single - BASIC----------------
#NOTES:
     dance-single:
     BASIC:
     easy:
     1:
     0.127,0.158,0.039,0.039,0.000,62.000,3.000,3.000,0.000,0.000:



0000
0000
0000
0000
,
0010
0000
0000
0000
,
1000
0000
0000
0000
,
0100
0000
0000
0000
,
0100
0000
0000
0000
,
0100
0000
0000
0000
,
0001
0000
0000
0000
,
1000
0000
0000
0000
,
0010
0000
0000
0000
,
0100
0100
0000
0000
,
0010
0010
0000
0000
,
0100
0100
0000
0010
,
0001
0000
0000
0000
,
1000
1000
0000
0000
,
0001
0001
0000
0000
,
1000
1000
0000
0000
,
0110
0000
0000
0000
,
0010
0000
0010
0000
,
0010
0000
0010
0000
,
0001
0000
0001
0000
,
1000
0000
1000
0000
,
0100
0000
0100
0000
,
0100
0000
0100
0000
,
1000
0000
1000
0000
,
0001
0000
0001
0000
,
0010
0000
0000
0000
,
0100
0000
0000
0000
,
0110
0000
0000
0000
,
2002
0000
0000
3003
,
0010
0000
0000
0000
,
0010
0000
0000
0000
,
0001
1000
0001
1000
,
0002
0000
0000
0003
,
0100
0000
0000
0000
,
0100
0100
0000
0000
,
0010
0000
0000
0000
,
0010
0010
0000
0000
,
1000
0000
0000
0000
,
1000
1000
0000
0000
,
0001
0000
0000
0000
,
0001
0001
0000
0000;
